즐겨찾기 | 현재접속자 (125) | 최근게시물
총 게시물 2,554건, 최근 8 건
   

[한글] 텍사스 전기톱 연쇄살인사건 The Texas Chainsaw Massacre 2003 720p BRRip x264-HDLiTE

글쓴이 : 익명글쓴이 날짜 : 2017-11-08 (수) 13:48 조회 : 266
다운로드 : [한글] 텍사스 전기톱 연쇄살인사건 The Texas Chainsaw Massacre 2003 720p BRRip x264-HDLiTE (1.6G)
171106 171107 171108 사이트, 다운로드, 무료, 바로보기


R | Horror

Format                                   : MPEG-4
Format profile                           : Base Media
Codec ID                                 : isom (isom)
File size                                : 2.10 GiB
Duration                                 : 1 h 38 min
Overall bit rate mode                    : Variable
Overall bit rate                         : 3 054 kb/s
Encoded date                             : UTC 2011-01-05 07:03:13
Tagged date                              : UTC 2011-01-05 07:03:13

Video
ID                                       : 1
Format                                   : AVC
Format/Info                              : Advanced Video Codec
Format profile                           : [email protected]
Format settings, CABAC                   : Yes
Format settings, ReFrames                : 4 frames
Codec ID                                 : avc1
Codec ID/Info                            : Advanced Video Coding
Duration                                 : 1 h 38 min
Bit rate                                 : 2 652 kb/s
Maximum bit rate                         : 60.0 Mb/s
Width                                    : 1 280 pixels
Height                                   : 720 pixels
Display aspect ratio                     : 16:9
Frame rate mode                          : Constant
Frame rate                               : 23.976 FPS
Color space                              : YUV
Chroma subsampling                       : 4:2:0
Bit depth                                : 8 bits
Scan type                                : Progressive
Bits/(Pixel*Frame)                       : 0.120
Stream size                              : 1.82 GiB (87%)

Audio
ID                                       : 2
Format                                   : AAC
Format/Info                              : Advanced Audio Codec
Format profile                           : LC
Codec ID                                 : 40
Duration                                 : 1 h 38 min
Bit rate mode                            : Variable
Bit rate                                 : 85.0 kb/s
Nominal bit rate                         : 401 kb/s
Maximum bit rate                         : 410 kb/s
Channel(s)                               : 2 channels
Channel(s)_Original                      : 6 channels
Channel positions                        : Front: L C R, Side: L R, LFE
Sampling rate                            : 48.0 kHz
Frame rate                               : 46.875 FPS (1024 spf)
Compression mode                         : Lossy
Stream size                              : 59.8 MiB (3%)
Language                                 : English

[한글] 텍사스 전기톱 연쇄살인사건 The Texas Chainsaw Massacre 2003 720p BRRip x264-HDLiTE
[ 바로감상 ] [ 다운로드 ]

   

총 게시물 2,554건, 최근 8 건
번호 제목 날짜 조회
2554
에드(Ed Gentry: 존 보이트 분)와 루이스(Lewis Medlock: 버트 레이놀즈 분) 등은 주말을 이용, 댐공사로 수몰될 …
01:48 3
2553
 남자들은 모두 마피아를 꿈꾸고, 여자들은 몸 파는데 여념이 없으며, 경찰은 부패했고, 갱스터들은 당…
01:48 4
2552
01:48 4
2551
01:48 3
2550
01:48 5
2549
데자뷰 (2006) The Dejavu, Déjà vu 평점 8.7/10 장르|나라액션/스릴러 미국 개봉 | 영화시간/타입/나라2…
01:48 1
2548
         1920년 잉글랜드, 수많은 목숨을 앗아간 2차 세계대전 이후 사람들은 초자연적 현상에 기대…
01:48 0
2547
SIZE..........................: 4.36 GBRUNTIME...................: 01:54:43VIDEO CODEC...........: x264 4800 Kb/sRESOLUTION.............: 1…
00:48 0
2546
         각기 다른 장소에서, 하지만 모두 같은 날 밤 10시에 끔찍한 얼굴로 발견된 4명의 시체. 그들…
11-17 89
2545
R | Drama, Horror, Thriller (Duration): 1h 33mn(FileSize): 1.96 GiBVideo(Format): AVC - Advanced Video Codec(Media): video/H264(Format): x2…
11-17 89
2544
{그녀의 이름은 레드 소냐(Red Sonja), 폭력이 난무하던 머나먼 옛날의 미개한 시대에 용맹한 빨간 머리의 …
11-16 129
2543
터키의 침공으로 유럽이 위기에 몰리자 드라큘라 왕자(게리 올드먼)는 십자군을 일으킨다. 드라큘라는 …
11-16 135
2542
터키의 침공으로 유럽이 위기에 몰리자 드라큘라 왕자(게리 올드먼)는 십자군을 일으킨다. 드라큘라는 …
11-16 126
2541
질풍노도의 시기를 겪고 있는 17세 소녀 샬리. 예쁜 얼굴에 재주도 많지만, 불안과 실망, 외로움에 시달리…
11-16 63
2540
교회는 점점 커졌고, 예수는 점점 작아졌다. 아버지 목사가 교회의 주인이고, 아들 목사가 다음 주인이다…
11-16 74
2539
R | Horror, Thriller (Duration): 1h 32mn(FileSize): 2.03 GiBVideo(Format): AVC - Advanced Video Codec(Format): x264(Resolution): 1280x720p(…
11-16 62
2538
PG | Horror  VideoID                                       : 1Format                …
11-16 62
2537
R | Comedy, Drama, MysteryFormat : MatroskaFormat version : Version 4 / Version 2File size : 2.89 GiBDuration : 2 h 17 minOverall bit rate …
11-16 67
2536
소위 불량 청소년(?)들이 텍사스로 차를 타고 여행을 떠난다. 그들은 표지판에 총을 쏘아대며, 맥주캔을 …
11-16 66
2535
소위 불량 청소년(?)들이 텍사스로 차를 타고 여행을 떠난다. 그들은 표지판에 총을 쏘아대며, 맥주캔을 …
11-16 60
 1  2  3  4  5  6  7  8  9  10  다음  맨끝