즐겨찾기 | 현재접속자 (137) | 최근게시물
총 게시물 2,584건, 최근 13 건
   

[한글] 데드 캠프 3 Wrong Turn 3 - Left for Dead 2009 (1080p Bluray x265 HEVC 10bit AAC 5.1 Tigole) [UTR]

글쓴이 : 익명글쓴이 날짜 : 2017-11-08 (수) 22:48 조회 : 336
다운로드 : [한글] 데드 캠프 3 Wrong Turn 3 - Left for Dead 2009 (1080p Bluray x265 HEVC 10bit AAC 5.1 Tigole) [UTR] (2.4G)
171106 171107 171108 토렌트, torrent, 사이트, 바로보기
Wrong Turn 3 - Left for Dead 2009에 대한 이미지 검색결과

 

Wrong Turn 3: Left for Dead 2009 in 1080p, encoded with x265 in HEVC and AAC 5.1 English, with subtitles! 
Encoded using the time consuming 2 pass, 10 bit color at 4500 kbps, from a Blu-ray source, for the highest quality possible. 



Media Information

Code:

General 
Format : Matroska 
Format version : Version 4 / Version 2 
File size : 3.20 GiB 
Duration : 1 h 32 min 
Overall bit rate : 4 972 kb/s 
Encoded date : UTC 2017-10-28 16:22:52 

Video 
ID : 1 
Format : HEVC 
Format/Info : High Efficiency Video Coding 
Format profile : Main [email protected]@Main 
Codec ID : V_MPEGH/ISO/HEVC 
Duration : 1 h 32 min 
Bit rate : 4 499 kb/s 
Width : 1 916 pixels 
Height : 1 080 pixels 
Display aspect ratio : 16:9 
Frame rate mode : Constant 
Frame rate : 23.976 (24000/1001) FPS 
Color space : YUV 
Chroma subsampling : 4:2:0 
Bit depth : 10 bits 
Bits/(Pixel*Frame) : 0.091 
Stream size : 2.89 GiB (90%) 

Audio 
ID : 2 
Format : AAC 
Format/Info : Advanced Audio Codec 
Format profile : LC 
Codec ID : A_AAC 
Duration : 1 h 32 min 
Bit rate : 442 kb/s 
Channel(s) : 6 channels 
Channel positions : Front: L C R, Side: L R, LFE 
Sampling rate : 48.0 kHz 
Frame rate : 46.875 FPS (1024 spf) 
Compression mode : Lossy 
Delay relative to video : 20 ms 
Stream size : 291 MiB (9%) 
Language : English 
Default : Yes 
Forced : No 

Text #3 
ID : 5 
Format : VobSub 
Muxing mode : zlib 
Codec ID : S_VOBSUB 
Codec ID/Info : Picture based subtitle format used on DVDs 
Duration : 1 h 28 min 
Bit rate : 7 171 b/s 
Count of elements : 996 
Stream size : 4.54 MiB (0%) 
Language : Korean 
Default : No 
Forced : No 

한글 자막 내장

죄수들을 호송하던 차량이 어떤 미친광이에 의해 전복되고 탈주범들은 교도관들을 인질로 잡지만, 미치광이 살인마에게 희생되고 만다. 한편 그 곳에 캠핑온 젊은 남녀들도 미치광이의 표적이 되는데...

[한글] 데드 캠프 3 Wrong Turn 3 - Left for Dead 2009 (1080p Bluray x265 HEVC 10bit AAC 5.1 Tigole) [UTR]
[ 바로감상 ] [ 다운로드 ]

   

총 게시물 2,584건, 최근 13 건
번호 제목 날짜 조회
2584
2019년 11월 LA. 400층이나 되는 높이의 건물들로 가득 찬 거리와 끊임없이 번쩍이는 레온등과 광적 행위가 …
01:48 2
2583
줄거리  당신이 기억에서 나를 지워도 처음처럼 사랑할 수 있을까?열렬히 사랑하는 부부 페이지(…
01:48 3
2582
줄거리  그녀들의 아슬아슬한 반란이 세상을 바꾼다!‘헬프[help]’ 는?1. 가정부 혹은 가사 도우미…
01:48 2
2581
제거 대상은 ‘빈 라덴’, 작전명은 ‘제로니모’!인류 역사상 가장 악명 높은 테러리스트를 사살하라!…
01:48 3
2580
줄거리  법도 없다! 희망도 없다! 탈출구도 없다! 평범한 중산층의 가장 포터는 어느날 집에 침입…
11-20 30
2579
줄거리  역사속에 묻혀졌던 파격적인 스캔들이 공개된다!프로이트와 융... 그리고 그녀가 품었던 …
11-20 40
2578
11-20 41
2577
          링의 공포로부터 벗어난 줄만 알았던 레이첼. 하지만 끔찍한 영혼의 저주는 계속되는 죽…
11-20 40
2576
           1974년 11월 14일, 뉴욕시 외곽에 위치한 아미티빌 마을. 온 가족이 처참하게 몰살당한 살…
11-20 40
2575
년대가 불분명한 5월의 어느날 화성인이 지구에 출현한다. 세계 평화와 자유진영의 지도자를 자처하는 …
11-20 6
2574
 타인의 인생 속으로... 거짓은 거짓을 낳고... 점점 깊어가는 거짓의 세계 한 남자가 있다. 그의 이름은 …
11-20 7
2573
NR | Comedy(Duration): 1h 37mn(FileSize): 1.88 GiBVideo(Format): AVC - Advanced Video Codec(Format): x264(Resolution): 1280x720p(AspectRati…
11-20 46
2572
Approved | Western(Duration): 1h 41mn(FileSize): 1.95 GiBVideo(Format): AVC - Advanced Video Codec(Format): x264(Resolution): 1280x720p(Asp…
11-20 43
2571
임페리얼 커피 컴퍼니의 판매사원인 믹 트래비스는 사원교육에서 진심 어린 미소로 좋은 평가를 받는다.…
11-20 75
2570
11-19 97
2569
마피아에게 쫓기는 증인을 지켜야 하는마데아의 엉뚱발랄 가족코미디!월스트리트 투자 은행의 CFO 인 조…
11-19 93
2568
PG | Drama, Mystery, Sci-Fi Size ...... 10.94 GBDuration .. 2 h 29 minVideo ..... 1920x800p / x264 / 9818 kbps / 23.976 fpsAudio ..... Engl…
11-19 96
2567
Approved | Action, Adventure, Crime SIZE ...... 3.27 GBDURATION .. 1 h 22 minVIDEO ..... x264 / 1280x696p / 5065 Kbps / 23.976 fpsAUDIO ...…
11-19 105
2566
11-19 97
2565
11-19 78
 1  2  3  4  5  6  7  8  9  10  다음  맨끝