즐겨찾기 | 현재접속자 (133) | 최근게시물
총 게시물 2,591건, 최근 11 건
   

[한글] 로빈슨 가족 Meet.the.Robinsons.2007.720p.BluRay.x264-x0r

글쓴이 : 익명글쓴이 날짜 : 2017-11-12 (일) 10:48 조회 : 327
다운로드 : [한글] 로빈슨 가족 Meet.the.Robinsons.2007.720p.BluRay.x264-x0r (2.9G)
171110 171111 171112 실시간, 감상, 다운로드, 무료보기


G | Animation, Adventure, Comedy

Format : Matroska
Format version : Version 4 / Version 2
File size : 2.11 GiB
Duration : 1 h 34 min
Overall bit rate : 3 202 kb/s
Movie name : Meet.the.Robinsons.2007.720p.BluRay.x264-x0r
Encoded date : UTC 2017-11-11 21:51:39
Writing application : mkvmerge v7.7.0 (Six Voices) 64bit built on Mar 1 2015 01:50:05
Writing library : libebml v1.3.1 + libmatroska v1.4.2

Video
ID : 1
Format : AVC
Format/Info : Advanced Video Codec
Format profile : [email protected]
Format settings, CABAC : Yes
Format settings, ReFrames : 8 frames
Codec ID : V_MPEG4/ISO/AVC
Duration : 1 h 34 min
Bit rate : 2 560 kb/s
Width : 1 280 pixels
Height : 720 pixels
Display aspect ratio : 16:9
Frame rate mode : Constant
Frame rate : 23.976 (23976/1000) FPS
Color space : YUV
Chroma subsampling : 4:2:0
Bit depth : 8 bits
Scan type : Progressive
Bits/(Pixel*Frame) : 0.116
Stream size : 1.69 GiB (80%)
Writing library : x264 core 142 r2389 956c8d8
Encoding settings : cabac=1 / ref=8 / deblock=1:-1:-1 / analyse=0x3:0x113 / me=umh / subme=9 / psy=1 / psy_rd=0.50:0.25 / mixed_ref=0 / me_range=32 / chroma_me=1 / trellis=2 / 8x8dct=1 / cqm=0 / deadzone=6,6 / fast_pskip=0 / chroma_qp_offset=-4 / threads=12 / lookahead_threads=1 / sliced_threads=0 / nr=0 / decimate=1 / interlaced=0 / bluray_compat=0 / constrained_intra=0 / bframes=4 / b_pyramid=2 / b_adapt=2 / b_bias=0 / direct=3 / weightb=1 / open_gop=0 / weightp=2 / keyint=240 / keyint_min=24 / scenecut=40 / intra_refresh=0 / rc_lookahead=120 / rc=2pass / mbtree=1 / bitrate=2560 / ratetol=1.0 / qcomp=0.00 / qpmin=0 / qpmax=69 / qpstep=4 / cplxblur=20.0 / qblur=0.5 / vbv_maxrate=20000 / vbv_bufsize=25000 / nal_hrd=none / filler=0 / ip_ratio=1.10 / aq=1:0.70
Language : English
Default : Yes
Forced : No
Color range : Limited
Color primaries : BT.709
Transfer characteristics : BT.709
Matrix coefficients : BT.709

Audio #1
ID : 2
Format : AC-3
Format/Info : Audio Coding 3
Format settings, Endianness : Big
Codec ID : A_AC3
Duration : 1 h 34 min
Bit rate mode : Constant
Bit rate : 448 kb/s
Channel(s) : 6 channels
Channel positions : Front: L C R, Side: L R, LFE
Sampling rate : 48.0 kHz
Frame rate : 31.250 FPS (1536 spf)
Bit depth : 16 bits
Compression mode : Lossy
Delay relative to video : -5 ms
Stream size : 303 MiB (14%)
Title : Surround
Language : English
Service kind : Complete Main
Default : Yes
Forced : No

Audio #2
ID : 3
Format : AC-3
Format/Info : Audio Coding 3
Mode : Dolby Digital
Format settings, Endianness : Big
Codec ID : A_AC3
Duration : 1 h 34 min
Bit rate mode : Constant
Bit rate : 192 kb/s
Channel(s) : 2 channels
Channel positions : Front: L R
Sampling rate : 48.0 kHz
Frame rate : 31.250 FPS (1536 spf)
Bit depth : 16 bits
Compression mode : Lossy
Stream size : 130 MiB (6%)
Title : Commentary
Language : English
Service kind : Complete Main
Default : No
Forced : No

Text
ID : 4
Format : UTF-8
Codec ID : S_TEXT/UTF8
Codec ID/Info : UTF-8 Plain Text
Duration : 1 h 32 min
Bit rate : 75 b/s
Count of elements : 1629
Stream size : 51.2 KiB (0%)
Language : English
Default : Yes
Forced : No

[한글] 로빈슨 가족 Meet.the.Robinsons.2007.720p.BluRay.x264-x0r
[ 바로감상 ] [ 다운로드 ]

   

총 게시물 2,591건, 최근 11 건
번호 제목 날짜 조회
2591
         일명 공포의 레인으로 통하는 찰스 레인은 네 번씩이나 민항 여객기를 폭파하고도 범죄에 …
11-21 10
2590
Source File:Leon: The Professional 1994 1080p BluRay Remux AVC DTS-HD MA 7.1 - R2D2 Media Information:Code:General Complete name : Léon …
11-21 9
2589
11-21 10
2588
11-21 10
2587
영국 한 마을에 영화 제작팀이 들어선다. 마을 회관에서 열리고 있는 파티에서 여배우 마리나(Marina Rudd: …
11-21 10
2586
PG | Adventure, Biography, Drama (Duration): 3h 12mn(FileSize): 4.05 GiBVideo(Format): AVC - Advanced Video Codec(Format): x264(Resolution)…
11-21 19
2585
R | Drama, Romance(Duration): 2h 31mn(FileSize): 2.91 GiBVideo(Format): AVC - Advanced Video Codec(Format): x264(Resolution): 1280x720p(Asp…
11-21 19
2584
2019년 11월 LA. 400층이나 되는 높이의 건물들로 가득 찬 거리와 끊임없이 번쩍이는 레온등과 광적 행위가 …
11-21 35
2583
줄거리  당신이 기억에서 나를 지워도 처음처럼 사랑할 수 있을까?열렬히 사랑하는 부부 페이지(…
11-21 33
2582
줄거리  그녀들의 아슬아슬한 반란이 세상을 바꾼다!‘헬프[help]’ 는?1. 가정부 혹은 가사 도우미…
11-21 34
2581
제거 대상은 ‘빈 라덴’, 작전명은 ‘제로니모’!인류 역사상 가장 악명 높은 테러리스트를 사살하라!…
11-21 21
2580
줄거리  법도 없다! 희망도 없다! 탈출구도 없다! 평범한 중산층의 가장 포터는 어느날 집에 침입…
11-20 53
2579
줄거리  역사속에 묻혀졌던 파격적인 스캔들이 공개된다!프로이트와 융... 그리고 그녀가 품었던 …
11-20 58
2578
11-20 59
2577
          링의 공포로부터 벗어난 줄만 알았던 레이첼. 하지만 끔찍한 영혼의 저주는 계속되는 죽…
11-20 60
2576
           1974년 11월 14일, 뉴욕시 외곽에 위치한 아미티빌 마을. 온 가족이 처참하게 몰살당한 살…
11-20 58
2575
년대가 불분명한 5월의 어느날 화성인이 지구에 출현한다. 세계 평화와 자유진영의 지도자를 자처하는 …
11-20 17
2574
 타인의 인생 속으로... 거짓은 거짓을 낳고... 점점 깊어가는 거짓의 세계 한 남자가 있다. 그의 이름은 …
11-20 19
2573
NR | Comedy(Duration): 1h 37mn(FileSize): 1.88 GiBVideo(Format): AVC - Advanced Video Codec(Format): x264(Resolution): 1280x720p(AspectRati…
11-20 66
2572
Approved | Western(Duration): 1h 41mn(FileSize): 1.95 GiBVideo(Format): AVC - Advanced Video Codec(Format): x264(Resolution): 1280x720p(Asp…
11-20 60
 1  2  3  4  5  6  7  8  9  10  다음  맨끝