즐겨찾기 | 현재접속자 (128) | 최근게시물
총 게시물 2,554건, 최근 8 건
   

[한글] 크루서블 The Crucible 1996 1080p Bluray x265 10Bit AAC 2.0 - GetSchwifty

글쓴이 : 익명글쓴이 날짜 : 2017-11-14 (화) 21:48 조회 : 135
다운로드 : [한글] 크루서블 The Crucible 1996 1080p Bluray x265 10Bit AAC 2.0 - GetSchwifty (2.9G)
171112 171113 171114 마그넷, 다운로드, torrent, 쥬비디오

Source File:

The Crucible 1996 1080p BluRay REMUX AVC DTS-HD MA 2.0-EPSiLON 



Media Information:


Code:

General 
Complete name : The Crucible 1996 1080p Bluray x265 10Bit AAC 2.0 - GetSchwifty.mkv 
Format : Matroska 
Format version : Version 4 / Version 2 
File size : 4.20 GiB 
Duration : 2 h 3 min 
Overall bit rate : 4 857 kb/s 
Movie name : The Crucible 
Encoded date : UTC 2017-10-03 05:22:44 

Video 
ID : 1 
Format : HEVC 
Format/Info : High Efficiency Video Coding 
Format profile : Main [email protected]@Main 
Codec ID : V_MPEGH/ISO/HEVC 
Duration : 2 h 3 min 
Bit rate : 4 684 kb/s 
Width : 1 920 pixels 
Height : 1 040 pixels 
Display aspect ratio : 1.85:1 
Frame rate mode : Constant 
Frame rate : 23.976 (24000/1001) FPS 
Color space : YUV 
Chroma subsampling : 4:2:0 
Bit depth : 10 bits 
Bits/(Pixel*Frame) : 0.098 
Stream size : 4.04 GiB (96%) 

Audio #1 
ID : 2 
Format : AAC 
Format/Info : Advanced Audio Codec 
Format profile : LC 
Codec ID : A_AAC 
Duration : 2 h 3 min 
Bit rate : 87.3 kb/s 
Channel(s) : 2 channels 
Channel positions : Front: L R 
Sampling rate : 48.0 kHz 
Frame rate : 46.875 FPS (1024 SPF) 
Compression mode : Lossy 
Delay relative to video : 9 ms 
Stream size : 77.3 MiB (2%) 
Title : English AAC VBR 2.0 
Language : English 
Default : Yes 
Forced : No 

Audio #2 
ID : 3 
Format : AAC 
Format/Info : Advanced Audio Codec 
Format profile : LC 
Codec ID : A_AAC 
Duration : 2 h 3 min 
Bit rate : 75.1 kb/s 
Channel(s) : 2 channels 
Channel positions : Front: L R 
Sampling rate : 48.0 kHz 
Frame rate : 46.875 FPS (1024 SPF) 
Compression mode : Lossy 
Delay relative to video : 9 ms 
Stream size : 66.5 MiB (2%) 
Title : Commentary with Director Nicholas Hytner 
Language : English 
Default : No 
Forced : No 

Text 
ID : 4 
Format : PGS 
Muxing mode : zlib 
Codec ID : S_HDMV/PGS 
Codec ID/Info : Picture based subtitle format used on BDs/HD-DVDs 
Duration : 1 h 57 min 
Bit rate : 34.0 kb/s 
Count of elements : 3248 
Stream size : 28.6 MiB (1%) 
Language : English 
Default : No 
Forced : No 

1692년 매사추세츠주 세일럼. 마을 어른들의 경건한 생활에 짓눌려 숨이 막힐 지경인 10대 소녀 몇 명이 숲 속에서 벌거벗은 채 춤을 춘다. 그 중 하나인 애비게일은 유부남인 농부 존 프록터와 육체 관계에 빠져 그의 부인을 죽이려는 유혹을 받는다. 그리고 세일럼 마을에는 갑자기 악마가 만연하게 된다. 사람들에게 발견된 소녀들은 자신들의 끔찍한 고발에 자극 받게 되고 마을은 온통 마법에 관한 아우성으로 들썩이게 된다.

[한글] 크루서블 The Crucible 1996 1080p Bluray x265 10Bit AAC 2.0 - GetSchwifty
[ 바로감상 ] [ 다운로드 ]

   

총 게시물 2,554건, 최근 8 건
번호 제목 날짜 조회
2554
에드(Ed Gentry: 존 보이트 분)와 루이스(Lewis Medlock: 버트 레이놀즈 분) 등은 주말을 이용, 댐공사로 수몰될 …
01:48 3
2553
 남자들은 모두 마피아를 꿈꾸고, 여자들은 몸 파는데 여념이 없으며, 경찰은 부패했고, 갱스터들은 당…
01:48 4
2552
01:48 4
2551
01:48 3
2550
01:48 5
2549
데자뷰 (2006) The Dejavu, Déjà vu 평점 8.7/10 장르|나라액션/스릴러 미국 개봉 | 영화시간/타입/나라2…
01:48 1
2548
         1920년 잉글랜드, 수많은 목숨을 앗아간 2차 세계대전 이후 사람들은 초자연적 현상에 기대…
01:48 0
2547
SIZE..........................: 4.36 GBRUNTIME...................: 01:54:43VIDEO CODEC...........: x264 4800 Kb/sRESOLUTION.............: 1…
00:48 0
2546
         각기 다른 장소에서, 하지만 모두 같은 날 밤 10시에 끔찍한 얼굴로 발견된 4명의 시체. 그들…
11-17 89
2545
R | Drama, Horror, Thriller (Duration): 1h 33mn(FileSize): 1.96 GiBVideo(Format): AVC - Advanced Video Codec(Media): video/H264(Format): x2…
11-17 89
2544
{그녀의 이름은 레드 소냐(Red Sonja), 폭력이 난무하던 머나먼 옛날의 미개한 시대에 용맹한 빨간 머리의 …
11-16 129
2543
터키의 침공으로 유럽이 위기에 몰리자 드라큘라 왕자(게리 올드먼)는 십자군을 일으킨다. 드라큘라는 …
11-16 135
2542
터키의 침공으로 유럽이 위기에 몰리자 드라큘라 왕자(게리 올드먼)는 십자군을 일으킨다. 드라큘라는 …
11-16 126
2541
질풍노도의 시기를 겪고 있는 17세 소녀 샬리. 예쁜 얼굴에 재주도 많지만, 불안과 실망, 외로움에 시달리…
11-16 63
2540
교회는 점점 커졌고, 예수는 점점 작아졌다. 아버지 목사가 교회의 주인이고, 아들 목사가 다음 주인이다…
11-16 74
2539
R | Horror, Thriller (Duration): 1h 32mn(FileSize): 2.03 GiBVideo(Format): AVC - Advanced Video Codec(Format): x264(Resolution): 1280x720p(…
11-16 62
2538
PG | Horror  VideoID                                       : 1Format                …
11-16 62
2537
R | Comedy, Drama, MysteryFormat : MatroskaFormat version : Version 4 / Version 2File size : 2.89 GiBDuration : 2 h 17 minOverall bit rate …
11-16 67
2536
소위 불량 청소년(?)들이 텍사스로 차를 타고 여행을 떠난다. 그들은 표지판에 총을 쏘아대며, 맥주캔을 …
11-16 66
2535
소위 불량 청소년(?)들이 텍사스로 차를 타고 여행을 떠난다. 그들은 표지판에 총을 쏘아대며, 맥주캔을 …
11-16 60
 1  2  3  4  5  6  7  8  9  10  다음  맨끝