즐겨찾기 | 현재접속자 (114) | 최근게시물
총 게시물 2,554건, 최근 8 건
   

[영] 데빌스 레인 The.Devils.Rain.1975.720p.BluRay.x264-x0r

글쓴이 : 익명글쓴이 날짜 : 2017-11-15 (수) 06:48 조회 : 103
다운로드 : [영] 데빌스 레인 The.Devils.Rain.1975.720p.BluRay.x264-x0r (1.7G)
171113 171114 171115 실시간, torrent, 무료보기, 공유


PG | Horror  

Format : Matroska
Format version : Version 4 / Version 2
File size : 1.77 GiB
Duration : 1 h 26 min
Overall bit rate : 2 946 kb/s
Movie name : The.Devils.Rain.1975.720p.BluRay.x264-x0r
Encoded date : UTC 2017-11-14 15:53:18
Writing application : mkvmerge v7.7.0 (Six Voices) 64bit built on Mar 1 2015 01:50:05
Writing library : libebml v1.3.1 + libmatroska v1.4.2

Video
ID : 1
Format : AVC
Format/Info : Advanced Video Codec
Format profile : [email protected]
Format settings, CABAC : Yes
Format settings, ReFrames : 9 frames
Codec ID : V_MPEG4/ISO/AVC
Duration : 1 h 26 min
Bit rate : 2 560 kb/s
Width : 1 280 pixels
Height : 720 pixels
Display aspect ratio : 16:9
Frame rate mode : Variable
Frame rate : 23.976 FPS
Color space : YUV
Chroma subsampling : 4:2:0
Bit depth : 8 bits
Scan type : Progressive
Bits/(Pixel*Frame) : 0.116
Stream size : 1.54 GiB (87%)
Writing library : x264 core 130 r2273 b3065e6
Encoding settings : cabac=1 / ref=9 / deblock=1:-2:-2 / analyse=0x3:0x133 / me=umh / subme=10 / psy=1 / psy_rd=1.00:0.25 / mixed_ref=0 / me_range=32 / chroma_me=1 / trellis=2 / 8x8dct=1 / cqm=0 / deadzone=6,6 / fast_pskip=0 / chroma_qp_offset=-4 / threads=12 / lookahead_threads=1 / sliced_threads=0 / nr=0 / decimate=1 / interlaced=0 / bluray_compat=0 / constrained_intra=0 / bframes=5 / b_pyramid=2 / b_adapt=2 / b_bias=0 / direct=3 / weightb=1 / open_gop=0 / weightp=2 / keyint=240 / keyint_min=24 / scenecut=40 / intra_refresh=0 / rc_lookahead=60 / rc=2pass / mbtree=1 / bitrate=2560 / ratetol=1.0 / qcomp=0.00 / qpmin=0 / qpmax=69 / qpstep=4 / cplxblur=20.0 / qblur=0.5 / vbv_maxrate=20000 / vbv_bufsize=25000 / nal_hrd=none / ip_ratio=1.10 / aq=1:0.90
Language : English
Default : Yes
Forced : No
Color range : Limited
Color primaries : BT.709
Transfer characteristics : BT.709
Matrix coefficients : BT.709

Audio #1
ID : 2
Format : AC-3
Format/Info : Audio Coding 3
Format settings, Endianness : Big
Codec ID : A_AC3
Duration : 1 h 26 min
Bit rate mode : Constant
Bit rate : 192 kb/s
Channel(s) : 2 channels
Channel positions : Front: L R
Sampling rate : 48.0 kHz
Frame rate : 31.250 FPS (1536 spf)
Bit depth : 16 bits
Compression mode : Lossy
Stream size : 118 MiB (7%)
Title : Stereo
Language : English
Service kind : Complete Main
Default : Yes
Forced : No

Audio #2
ID : 3
Format : AC-3
Format/Info : Audio Coding 3
Format settings, Endianness : Big
Codec ID : A_AC3
Duration : 1 h 26 min
Bit rate mode : Constant
Bit rate : 192 kb/s
Channel(s) : 2 channels
Channel positions : Front: L R
Sampling rate : 48.0 kHz
Frame rate : 31.250 FPS (1536 spf)
Bit depth : 16 bits
Compression mode : Lossy
Stream size : 118 MiB (7%)
Title : Commentary
Language : English
Service kind : Complete Main
Default : No
Forced : No

Text
ID : 4
Format : UTF-8
Codec ID : S_TEXT/UTF8
Codec ID/Info : UTF-8 Plain Text
Duration : 1 h 25 min
Bit rate : 31 b/s
Count of elements : 726
Stream size : 19.9 KiB (0%)
Language : English
Default : Yes
Forced : No

[영] 데빌스 레인 The.Devils.Rain.1975.720p.BluRay.x264-x0r
[ 바로감상 ] [ 다운로드 ]

   

총 게시물 2,554건, 최근 8 건
번호 제목 날짜 조회
2554
에드(Ed Gentry: 존 보이트 분)와 루이스(Lewis Medlock: 버트 레이놀즈 분) 등은 주말을 이용, 댐공사로 수몰될 …
01:48 2
2553
 남자들은 모두 마피아를 꿈꾸고, 여자들은 몸 파는데 여념이 없으며, 경찰은 부패했고, 갱스터들은 당…
01:48 3
2552
01:48 3
2551
01:48 2
2550
01:48 3
2549
데자뷰 (2006) The Dejavu, Déjà vu 평점 8.7/10 장르|나라액션/스릴러 미국 개봉 | 영화시간/타입/나라2…
01:48 0
2548
         1920년 잉글랜드, 수많은 목숨을 앗아간 2차 세계대전 이후 사람들은 초자연적 현상에 기대…
01:48 0
2547
SIZE..........................: 4.36 GBRUNTIME...................: 01:54:43VIDEO CODEC...........: x264 4800 Kb/sRESOLUTION.............: 1…
00:48 0
2546
         각기 다른 장소에서, 하지만 모두 같은 날 밤 10시에 끔찍한 얼굴로 발견된 4명의 시체. 그들…
11-17 89
2545
R | Drama, Horror, Thriller (Duration): 1h 33mn(FileSize): 1.96 GiBVideo(Format): AVC - Advanced Video Codec(Media): video/H264(Format): x2…
11-17 89
2544
{그녀의 이름은 레드 소냐(Red Sonja), 폭력이 난무하던 머나먼 옛날의 미개한 시대에 용맹한 빨간 머리의 …
11-16 129
2543
터키의 침공으로 유럽이 위기에 몰리자 드라큘라 왕자(게리 올드먼)는 십자군을 일으킨다. 드라큘라는 …
11-16 135
2542
터키의 침공으로 유럽이 위기에 몰리자 드라큘라 왕자(게리 올드먼)는 십자군을 일으킨다. 드라큘라는 …
11-16 126
2541
질풍노도의 시기를 겪고 있는 17세 소녀 샬리. 예쁜 얼굴에 재주도 많지만, 불안과 실망, 외로움에 시달리…
11-16 63
2540
교회는 점점 커졌고, 예수는 점점 작아졌다. 아버지 목사가 교회의 주인이고, 아들 목사가 다음 주인이다…
11-16 74
2539
R | Horror, Thriller (Duration): 1h 32mn(FileSize): 2.03 GiBVideo(Format): AVC - Advanced Video Codec(Format): x264(Resolution): 1280x720p(…
11-16 61
2538
PG | Horror  VideoID                                       : 1Format                …
11-16 62
2537
R | Comedy, Drama, MysteryFormat : MatroskaFormat version : Version 4 / Version 2File size : 2.89 GiBDuration : 2 h 17 minOverall bit rate …
11-16 67
2536
소위 불량 청소년(?)들이 텍사스로 차를 타고 여행을 떠난다. 그들은 표지판에 총을 쏘아대며, 맥주캔을 …
11-16 66
2535
소위 불량 청소년(?)들이 텍사스로 차를 타고 여행을 떠난다. 그들은 표지판에 총을 쏘아대며, 맥주캔을 …
11-16 60
 1  2  3  4  5  6  7  8  9  10  다음  맨끝