즐겨찾기 | 현재접속자 (103) | 최근게시물
총 게시물 2,570건, 최근 13 건
   

[무] 스트라이크 원 Strike.One.2014.720p.BluRay.x264-x0r

글쓴이 : 익명글쓴이 날짜 : 2017-11-15 (수) 06:48 조회 : 178
다운로드 : [무] 스트라이크 원 Strike.One.2014.720p.BluRay.x264-x0r (3.6G)
171113 171114 171115 마그넷, 유튜브, 실시간, 감상


NR | Action, Crime, Drama

Format : Matroska
Format version : Version 4 / Version 2
File size : 2.18 GiB
Duration : 1 h 43 min
Overall bit rate : 3 005 kb/s
Movie name : Strike.One.2014.720p.BluRay.x264-x0r
Encoded date : UTC 2017-11-14 18:26:20
Writing application : mkvmerge v7.7.0 (Six Voices) 64bit built on Mar 1 2015 01:50:05
Writing library : libebml v1.3.1 + libmatroska v1.4.2

Video
ID : 1
Format : AVC
Format/Info : Advanced Video Codec
Format profile : [email protected]
Format settings, CABAC : Yes
Format settings, ReFrames : 9 frames
Codec ID : V_MPEG4/ISO/AVC
Duration : 1 h 43 min
Bit rate : 2 560 kb/s
Width : 1 280 pixels
Height : 720 pixels
Display aspect ratio : 16:9
Frame rate mode : Constant
Frame rate : 23.976 (24000/1001) FPS
Color space : YUV
Chroma subsampling : 4:2:0
Bit depth : 8 bits
Scan type : Progressive
Bits/(Pixel*Frame) : 0.116
Stream size : 1.85 GiB (85%)
Writing library : x264 core 148 r2643 5c65704
Encoding settings : cabac=1 / ref=9 / deblock=1:-2:-2 / analyse=0x3:0x113 / me=umh / subme=9 / psy=1 / psy_rd=1.00:0.25 / mixed_ref=1 / me_range=32 / chroma_me=1 / trellis=2 / 8x8dct=1 / cqm=0 / deadzone=21,11 / fast_pskip=1 / chroma_qp_offset=-4 / threads=12 / lookahead_threads=1 / sliced_threads=0 / nr=0 / decimate=1 / interlaced=0 / bluray_compat=0 / constrained_intra=0 / bframes=5 / b_pyramid=2 / b_adapt=2 / b_bias=0 / direct=3 / weightb=1 / open_gop=0 / weightp=2 / keyint=240 / keyint_min=24 / scenecut=40 / intra_refresh=0 / rc_lookahead=40 / rc=2pass / mbtree=1 / bitrate=2560 / ratetol=1.0 / qcomp=0.60 / qpmin=0 / qpmax=69 / qpstep=4 / cplxblur=20.0 / qblur=0.5 / vbv_maxrate=20000 / vbv_bufsize=20000 / nal_hrd=none / filler=0 / ip_ratio=1.40 / aq=1:1.00
Language : English
Default : Yes
Forced : No
Color range : Limited
Color primaries : BT.709
Transfer characteristics : BT.709
Matrix coefficients : BT.709

Audio
ID : 2
Format : AC-3
Format/Info : Audio Coding 3
Format settings, Endianness : Big
Codec ID : A_AC3
Duration : 1 h 43 min
Bit rate mode : Constant
Bit rate : 448 kb/s
Channel(s) : 6 channels
Channel positions : Front: L C R, Side: L R, LFE
Sampling rate : 48.0 kHz
Frame rate : 31.250 FPS (1536 spf)
Bit depth : 16 bits
Compression mode : Lossy
Delay relative to video : -5 ms
Stream size : 332 MiB (15%)
Title : Surround
Language : English
Service kind : Complete Main
Default : Yes
Forced : No

[무] 스트라이크 원 Strike.One.2014.720p.BluRay.x264-x0r
[ 바로감상 ] [ 다운로드 ]

   

총 게시물 2,570건, 최근 13 건
번호 제목 날짜 조회
2570
09:48 3
2569
마피아에게 쫓기는 증인을 지켜야 하는마데아의 엉뚱발랄 가족코미디!월스트리트 투자 은행의 CFO 인 조…
09:48 3
2568
PG | Drama, Mystery, Sci-Fi Size ...... 10.94 GBDuration .. 2 h 29 minVideo ..... 1920x800p / x264 / 9818 kbps / 23.976 fpsAudio ..... Engl…
07:48 7
2567
Approved | Action, Adventure, Crime SIZE ...... 3.27 GBDURATION .. 1 h 22 minVIDEO ..... x264 / 1280x696p / 5065 Kbps / 23.976 fpsAUDIO ...…
04:48 7
2566
01:48 6
2565
01:48 7
2564
독교와 동양철학, 우주와 창조주, 인간에 대한 독특한 세계관이 표현 된 작품으로 ‘조도로프스키’ 감…
11-18 14
2563
특수부대에서 제대하고 귀향한 크리스 본(더 락). 아버지처럼 제재소에서 일하기를 원했던 그는 완전히 …
11-18 15
2562
11-18 14
2561
11-18 13
2560
어느 북쪽 마을인 후빌(Whoville) 사람들은 온통 크리스마스에 대한 기대에 들떠있다. 크럼피트 산의 꼭대…
11-18 10
2559
         1881년! 중국의 공주가 미국으로 납치되고 납치범들은 공주의 몸 값으로 엄청난 돈을 요구한…
11-18 6
2558
NR | Animation, Adventure, Family VideoID                                       : 1Format      …
11-18 7
2557
G | Action, Western(Duration): 1h 46mn(FileSize): 1.78 GiBVideo(Format): AVC - Advanced Video Codec(Format): x264(Resolution): 1280x546p(As…
11-18 33
2556
NR | Action, Western(Duration): 1h 35mn(FileSize): 1.64 GiBVideo(Format): AVC - Advanced Video Codec(Format): x264(Resolution): 1280x546p(A…
11-18 26
2555
PG-13 | Action, Comedy, Crime (Duration): 1h 28mn(FileSize): 1.98 GiBVideo(Format): AVC - Advanced Video Codec(Format): x264(Resolution): 1…
11-18 26
2554
에드(Ed Gentry: 존 보이트 분)와 루이스(Lewis Medlock: 버트 레이놀즈 분) 등은 주말을 이용, 댐공사로 수몰될 …
11-18 40
2553
 남자들은 모두 마피아를 꿈꾸고, 여자들은 몸 파는데 여념이 없으며, 경찰은 부패했고, 갱스터들은 당…
11-18 40
2552
11-18 24
2551
11-18 23
 1  2  3  4  5  6  7  8  9  10  다음  맨끝